<?xml version="1.0" standalone="no"?>
<!DOCTYPE svg PUBLIC "-//W3C//DTD SVG 1.1//EN" "http://www.w3.org/Graphics/SVG/1.1/DTD/svg11.dtd" >
<svg xmlns="http://www.w3.org/2000/svg" xmlns:xlink="http://www.w3.org/1999/xlink" version="1.1">
<metadata>
Created by FontForge 20200314 at Wed Jul 22 06:51:22 2015
 By Unknown
(c)2010 Paul Barnes and Commercial Type.
</metadata>
<defs>
<font id="DalaFlodaWeb-Roman" horiz-adv-x="180" >
  <font-face 
    font-family="Dala Floda Web Roman"
    font-weight="400"
    font-stretch="normal"
    units-per-em="1000"
    panose-1="2 2 5 3 9 3 8 2 3 3"
    ascent="800"
    descent="-200"
    x-height="417"
    cap-height="630"
    bbox="-41 -261 1174 704"
    underline-thickness="50"
    underline-position="-100"
    unicode-range="U+000D-201D"
  />
<missing-glyph 
 />
    <glyph glyph-name=".notdef" 
 />
    <glyph glyph-name=".null" horiz-adv-x="0" 
 />
    <glyph glyph-name="nonmarkingreturn" unicode="&#xd;" 
 />
    <glyph glyph-name="NULL" horiz-adv-x="0" 
 />
    <glyph glyph-name="NULL" horiz-adv-x="0" 
 />
    <glyph glyph-name="space" unicode=" " 
 />
    <glyph glyph-name="comma" unicode="," horiz-adv-x="227" 
d="M51 44q0 26 18.5 39.5t38.5 13.5q35 0 54.5 -20.5t19.5 -65.5q0 -24 -10.5 -47.5t-28.5 -43.5t-41.5 -36.5t-48.5 -25.5l-3 7q34 16 56.5 52t21.5 81q-12 -6 -30 -6q-17 0 -32 14.5t-15 37.5z" />
    <glyph glyph-name="hyphen" unicode="-" horiz-adv-x="292" 
d="M50 225v52h192v-52h-192z" />
    <glyph glyph-name="period" unicode="." horiz-adv-x="225" 
d="M60 45q0 22 15.5 37t37.5 15t37 -15t15 -37t-15 -37.5t-37 -15.5t-37.5 15.5t-15.5 37.5z" />
    <glyph glyph-name="zero" unicode="0" horiz-adv-x="499" 
d="M35 210q0 43 16 80.5t43.5 66.5t63 47.5t74.5 23.5v-10q-27 -5 -46.5 -24.5t-32 -48.5t-18.5 -64t-6 -71t6 -71t18.5 -64t32 -48.5t46.5 -24.5v-10q-39 4 -74.5 23t-63 48t-43.5 66.5t-16 80.5zM464 210q0 -43 -16 -80.5t-43.5 -66.5t-63 -48t-74.5 -23v10
q27 5 46.5 24.5t32 48.5t18.5 64t6 71t-6 71t-18.5 64t-32 48.5t-46.5 24.5v10q39 -5 74.5 -23.5t63 -47.5t43.5 -66.5t16 -80.5z" />
    <glyph glyph-name="one" unicode="1" horiz-adv-x="280" 
d="M183 110q0 -51 16.5 -74t58.5 -28v-8h-236v8q42 5 58.5 28t16.5 74v200q0 51 -16.5 74t-58.5 28v8h236v-8q-42 -5 -58.5 -28t-16.5 -74v-200z" />
    <glyph glyph-name="two" unicode="2" horiz-adv-x="398" 
d="M99 82h165q42 0 66.5 18.5t37.5 61.5h8l-20 -162h-341zM124 114q39 41 66.5 82t27.5 94q0 32 -20 52.5t-63 20.5q-26 0 -49 -9.5t-46 -32.5l-6 4q10 21 25 39.5t33 32.5t40 22.5t48 8.5q66 0 96.5 -32t30.5 -83q0 -31 -13.5 -56.5t-37 -49.5t-56 -47.5t-70.5 -50.5z" />
    <glyph glyph-name="three" unicode="3" horiz-adv-x="354" 
d="M176 200q17 17 26.5 37.5t9.5 48.5q0 40 -23.5 60.5t-63.5 20.5q-59 0 -96 -39l-7 5q10 20 26 37.5t35.5 30t42 20t46.5 7.5q26 0 48 -5t37.5 -17t24 -31.5t8.5 -47.5q0 -20 -9.5 -39t-25 -36t-35 -32t-39.5 -26zM55 -90q18 0 31 -13t13 -32q0 -18 -13 -31t-31 -13
q-19 0 -32 13t-13 31q0 19 13 32t32 13zM239 -8q0 21 -6 41.5t-20.5 36t-39.5 25.5t-64 10q-9 0 -23.5 -1.5t-24.5 -3.5l-2 6l85 66q43 0 76.5 -12t56 -31.5t34 -44.5t11.5 -52q0 -35 -14 -67.5t-40.5 -60t-64.5 -48t-85 -30.5v8q30 6 52.5 23t37.5 39.5t23 47.5t8 48z" />
    <glyph glyph-name="four" unicode="4" horiz-adv-x="514" 
d="M331 -153h-86v492l59 89h27v-581zM371 104h138l-13 -74h-125v74zM205 30h-193v4l63 70h130v-74z" />
    <glyph glyph-name="five" unicode="5" horiz-adv-x="320" 
d="M126 420h176l-18 -82h-187zM49 -159q33 10 60 29t46.5 43t30 52t10.5 56q0 38 -15 70t-39 59q-19 21 -41.5 38.5t-46.5 32.5l33 91q32 -20 63 -42.5t55 -48.5q29 -32 45 -68t16 -76q0 -45 -18 -85.5t-48 -72.5t-69 -54.5t-80 -31.5zM-26 -105q0 19 13 32t32 13
q18 0 31 -13t13 -32q0 -18 -13 -31t-31 -13q-19 0 -32 13t-13 31z" />
    <glyph glyph-name="six" unicode="6" horiz-adv-x="462" 
d="M435 608q-28 -11 -62.5 -27t-70 -39.5t-68.5 -55.5t-58.5 -75t-41 -97.5t-15.5 -123.5q0 -19 5 -49t17 -59.5t32 -52.5t50 -27v-10q-36 2 -71 17.5t-63.5 43.5t-46 67t-17.5 88q0 46 11 86t29.5 74.5t44 63.5t55.5 53q40 32 78 54.5t72.5 37.5t64 24.5t52.5 15.5z
M164 315q5 7 16 17t26 19t34.5 15.5t40.5 6.5q39 0 69 -13.5t50.5 -37.5t31 -56.5t10.5 -69.5q0 -40 -14.5 -74.5t-40.5 -61.5t-61 -44.5t-76 -22.5v10q21 4 39.5 20t32 40t21 54t7.5 62q0 66 -30.5 105t-100.5 39q-11 0 -28 -2t-27 -7v1z" />
    <glyph glyph-name="seven" unicode="7" horiz-adv-x="394" 
d="M343 338h-216q-30 0 -50.5 -6.5t-34.5 -17t-22.5 -23t-14.5 -23.5h-9l46 152h342zM123 -167h-67l260 472h12z" />
    <glyph glyph-name="eight" unicode="8" horiz-adv-x="446" 
d="M284 368q20 23 29 55.5t9 62.5q0 54 -24.5 85.5t-74.5 31.5q-16 0 -31 -5t-27 -15.5t-19.5 -27t-7.5 -40.5q0 -30 9.5 -51.5t26 -39.5t39.5 -35t50 -38q23 -18 49 -37.5t48 -43.5t36.5 -52t14.5 -62q0 -41 -16.5 -72t-43.5 -51.5t-61.5 -30.5t-69.5 -10t-68 8.5t-59 26.5
t-42 45t-16 63q0 25 11.5 48t29.5 42t40.5 34t44.5 26l5 -5q-20 -17 -39.5 -50.5t-19.5 -78.5q0 -67 31.5 -106.5t88.5 -39.5q56 0 80.5 32t24.5 81q0 25 -7 43t-21 34.5t-35.5 33.5t-50.5 41q-28 22 -55.5 42t-49.5 42.5t-35.5 50.5t-13.5 67q0 30 13.5 56.5t36.5 46t53 31
t64 11.5q75 0 116 -33.5t41 -83.5q0 -23 -8.5 -43.5t-22.5 -37.5t-32 -31t-36 -24z" />
    <glyph glyph-name="nine" unicode="9" horiz-adv-x="472" 
d="M37 -168q28 11 62.5 25.5t70 35.5t68.5 51t58.5 70.5t41 93.5t15.5 122q0 26 -6.5 57t-20.5 58.5t-35.5 47.5t-51.5 25v10q36 -2 73 -15t67 -38.5t49 -65.5t19 -97q0 -84 -36.5 -147t-94.5 -111q-59 -48 -131.5 -79.5t-144.5 -51.5zM298 115q-10 -15 -34.5 -33.5
t-67.5 -18.5q-39 0 -69.5 12.5t-52 35.5t-33 54t-11.5 69q0 80 50 131t132 62v-10q-43 -9 -66.5 -55t-23.5 -111q0 -66 30.5 -105t100.5 -39q25 0 45 9v-1z" />
    <glyph glyph-name="A" unicode="A" horiz-adv-x="600" 
d="M351 250h-203l8 22h187l-91 250l44 115h13l194 -508q26 -63 56 -89.5t69 -31.5v-8h-294v8q41 2 59 15t18 42q0 16 -5.5 35t-15.5 44zM-40 0v8q27 5 46.5 14t39.5 28q25 23 40 50.5t28 59.5l8 -4q-2 -7 -6 -30t-4 -44q0 -37 24 -54.5t60 -19.5v-8h-236z" />
    <glyph glyph-name="B" unicode="B" horiz-adv-x="579" 
d="M40 8q25 3 42.5 9.5t27.5 20t14.5 34t4.5 52.5v382q0 31 -4.5 52t-14.5 34.5t-27.5 20t-42.5 9.5v8h187v-630h-187v8zM549 167q0 -41 -16.5 -70.5t-45 -49.5t-66 -30.5t-79.5 -14.5q-12 -2 -29 -2h-25v8q48 4 79 17t49 34t25 48.5t7 59.5q0 56 -29 96t-77 57q-12 5 -31 7
t-33 2v7q7 0 18 1.5t20 4.5q42 14 65.5 53t23.5 84q0 39 -8.5 65.5t-24 43t-37 24.5t-47.5 10v8q32 0 69.5 -6.5t69.5 -23t53 -45.5t21 -74q0 -28 -13 -52t-34.5 -43t-49.5 -32t-59 -19v-2q39 -5 76 -16t65.5 -30.5t45.5 -48.5t17 -71z" />
    <glyph glyph-name="C" unicode="C" horiz-adv-x="671" 
d="M598 440q-12 66 -50 112.5t-103 66.5q-23 7 -53 10v9q69 -2 122.5 -11.5t92.5 -25.5v-161h-9zM610 206v-178q-36 -12 -91.5 -21t-113.5 -14v9q23 3 44 9q62 20 100.5 72.5t51.5 122.5h9zM362 -8q-74 2 -134 29.5t-103 72.5t-66.5 105t-23.5 127q0 75 31 132t78 96
t101.5 59.5t102.5 23.5v-9q-13 -2 -33.5 -7t-34.5 -13q-28 -15 -53 -38.5t-43.5 -58t-29.5 -80.5t-11 -105q0 -50 8 -97t25.5 -87t45 -70.5t65.5 -47.5q17 -8 36.5 -14.5t38.5 -8.5v-9z" />
    <glyph glyph-name="D" unicode="D" horiz-adv-x="725" 
d="M680 319q0 -103 -55 -176.5t-148 -110.5q-42 -17 -90 -24.5t-99 -7.5v8q15 0 34 3t38.5 8t37.5 11.5t31 12.5q33 16 59 39t45 55.5t29 74.5t10 97q0 60 -15 108.5t-41 85t-61.5 61.5t-76.5 39q-44 16 -89 19v8q56 -2 107 -12q61 -12 113 -36.5t90 -61.5t59.5 -87
t21.5 -114zM40 8q25 3 42.5 9.5t27.5 20t14.5 34t4.5 52.5v382q0 31 -4.5 52t-14.5 34.5t-27.5 20t-42.5 9.5v8h187v-630h-187v8z" />
    <glyph glyph-name="E" unicode="E" horiz-adv-x="604" 
d="M536 446q-11 39 -22 64t-24.5 42t-30.5 27.5t-41 20.5q-9 4 -25 7.5t-34 6.5t-37 5.5t-34 2.5v8h250l6 -184h-8zM291 322q36 1 60 6.5t40 18.5t25.5 35t16.5 57h8v-242h-8q-7 34 -16.5 56.5t-25.5 35.5t-40 18.5t-60 6.5v8zM40 8q25 3 42.5 9.5t27.5 20t14.5 34t4.5 52.5
v382q0 31 -4.5 52t-14.5 34.5t-27.5 20t-42.5 9.5v8h187v-630h-187v8zM291 8q39 2 77.5 9.5t67.5 23.5q27 13 46.5 30.5t33 39t23.5 48t19 58.5h8l-9 -217h-266v8z" />
    <glyph glyph-name="F" unicode="F" horiz-adv-x="598" 
d="M227 124q0 -32 6 -52.5t19 -34t34 -20t50 -9.5v-8h-296v8q25 3 42.5 9.5t27.5 20t14.5 34t4.5 52.5v382q0 31 -4.5 52t-14.5 34.5t-27.5 20t-42.5 9.5v8h187v-506zM552 436q-8 36 -20.5 61.5t-29 44t-37 31.5t-44.5 22q-9 4 -25.5 8.5t-35 8.5t-38 7t-34.5 3v8h260
l12 -194h-8zM291 322q36 1 61.5 8t43.5 22t29 38.5t18 58.5h8v-262h-8q-7 34 -18 58t-29 39t-43.5 22t-61.5 8v8z" />
    <glyph glyph-name="G" unicode="G" horiz-adv-x="702" 
d="M599 439q-15 71 -59 121t-110 64q-12 3 -23.5 3.5t-24.5 2.5v8q68 0 125 -7.5t86 -18.5l15 -173h-9zM522 155q0 31 -4.5 52t-14.5 34.5t-27.5 20t-42.5 9.5v8h269v-8q-26 -3 -43 -9.5t-27 -20t-14.5 -34.5t-4.5 -52v-129q-17 -6 -41.5 -11.5t-51.5 -10t-54.5 -7.5
t-50.5 -4v9q20 2 34 4.5t30 7.5q21 7 32 19.5t11 34.5v87zM370 -8q-84 1 -147 28.5t-105 72.5t-62.5 103.5t-20.5 123.5q0 73 27 130t70 97.5t97.5 63.5t108.5 26v-9q-13 -2 -32.5 -7.5t-34.5 -13.5q-56 -30 -92 -95.5t-36 -180.5q0 -53 9 -102t28 -89.5t47.5 -71.5
t67.5 -48q37 -16 75 -19v-9z" />
    <glyph glyph-name="H" unicode="H" horiz-adv-x="796" 
d="M262 336h272v-22h-272v22zM129 506q0 31 -4.5 52t-14.5 34.5t-27.5 20t-42.5 9.5v8h276v-8q-26 -3 -43 -9.5t-27 -20t-14.5 -34.5t-4.5 -52v-382q0 -32 4.5 -52.5t14.5 -34t27 -20t43 -9.5v-8h-276v8q25 3 42.5 9.5t27.5 20t14.5 34t4.5 52.5v382zM667 124
q0 -32 4.5 -52.5t14.5 -34t27 -20t43 -9.5v-8h-276v8q25 3 42.5 9.5t27.5 20t14.5 34t4.5 52.5v382q0 31 -4.5 52t-14.5 34.5t-27.5 20t-42.5 9.5v8h276v-8q-26 -3 -43 -9.5t-27 -20t-14.5 -34.5t-4.5 -52v-382z" />
    <glyph glyph-name="I" unicode="I" horiz-adv-x="356" 
d="M129 506q0 31 -4.5 52t-14.5 34.5t-27.5 20t-42.5 9.5v8h276v-8q-26 -3 -43 -9.5t-27 -20t-14.5 -34.5t-4.5 -52v-382q0 -32 4.5 -52.5t14.5 -34t27 -20t43 -9.5v-8h-276v8q25 3 42.5 9.5t27.5 20t14.5 34t4.5 52.5v382z" />
    <glyph glyph-name="J" unicode="J" horiz-adv-x="319" 
d="M213 87q0 -54 -15.5 -92.5t-35.5 -61.5q-15 -18 -37 -34t-46.5 -29.5t-50.5 -24t-49 -17.5l-3 10q32 12 59.5 35t41.5 40q24 29 31 78t7 108v407q0 31 -4.5 52t-14.5 34.5t-27.5 20t-42.5 9.5v8h276v-8q-26 -3 -43 -9.5t-27 -20t-14.5 -34.5t-4.5 -52v-419z" />
    <glyph glyph-name="K" unicode="K" horiz-adv-x="724" 
d="M707 622q-48 -5 -105 -40q-39 -24 -79.5 -56.5t-75.5 -63.5l-5 6q46 48 46 91q0 17 -7.5 28.5t-19.5 19t-27.5 11t-30.5 4.5v8h304v-8zM724 -7q-17 0 -49.5 1.5t-61.5 5.5q-24 3 -43 8.5t-37.5 16.5t-37.5 28.5t-41 44.5q-18 21 -38.5 46.5t-41.5 52.5t-41.5 54.5
t-38.5 53.5l64 72q14 -19 34.5 -46t44 -57.5t49 -62t49 -59.5t43.5 -50.5t33 -34.5q12 -10 24 -20.5t25.5 -20t29 -16t34.5 -9.5v-8zM129 506q0 31 -4.5 52t-14.5 34.5t-27.5 20t-42.5 9.5v8h276v-8q-26 -3 -43 -9.5t-27 -20t-14.5 -34.5t-4.5 -52v-382q0 -32 4.5 -52.5
t14.5 -34t27 -20t43 -9.5v-8h-276v8q25 3 42.5 9.5t27.5 20t14.5 34t4.5 52.5v382z" />
    <glyph glyph-name="L" unicode="L" horiz-adv-x="605" 
d="M567 219l-19 -219h-260v8q40 2 78.5 9t67.5 24q48 27 77.5 70t46.5 108h9zM227 0h-187v8q25 3 42.5 9.5t27.5 20t14.5 34t4.5 52.5v382q0 31 -4.5 52t-14.5 34.5t-27.5 20t-42.5 9.5v8h286v-8q-29 -3 -48.5 -9.5t-30.5 -20t-15.5 -34.5t-4.5 -52v-506z" />
    <glyph glyph-name="M" unicode="M" horiz-adv-x="904" 
d="M441 -8h-4l-250 505q-18 36 -35.5 59t-39.5 38q-19 12 -41.5 19.5t-39.5 8.5v8h205l258 -521zM663 630h197v-8q-31 -3 -49.5 -11.5t-28 -23.5t-11.5 -37t-1 -52l13 -366q1 -33 6 -56t16 -37t29 -21t45 -10v-8h-281v8q46 5 65.5 24t19.5 67v15t-1 18zM-10 0v8
q29 2 52.5 11.5t40.5 29.5q9 10 16.5 25.5t14 33t11.5 35.5t8 33h10q0 -13 0.5 -30.5t2.5 -35t6.5 -33.5t12.5 -26q18 -21 43 -32t60 -11v-8h-278z" />
    <glyph glyph-name="N" unicode="N" horiz-adv-x="711" 
d="M3 0v8q29 2 52.5 11.5t40.5 29.5q9 10 15.5 26t11 34t7 36t2.5 31h10q0 -13 2.5 -30.5t7 -35t11.5 -33.5t15 -26q18 -21 46 -31t57 -12v-8h-278zM147 528q-10 12 -25 29.5t-35 31.5q-38 29 -87 33v8h194l393 -483v-150h-6zM716 630v-8q-29 -2 -52.5 -11.5t-40.5 -29.5
q-9 -10 -15.5 -26.5t-11 -34.5t-7 -35.5t-2.5 -30.5h-10q0 13 -2.5 30.5t-7 35t-11.5 33.5t-15 26q-18 21 -46 31t-57 12v8h278z" />
    <glyph glyph-name="O" unicode="O" horiz-adv-x="771" 
d="M380 -8q-84 1 -147 28.5t-105 72.5t-62.5 103.5t-20.5 123.5q0 73 27 130t70 97.5t97.5 63.5t108.5 26v-9q-13 -2 -32.5 -7.5t-34.5 -13.5q-56 -30 -92 -95.5t-36 -180.5q0 -53 9 -102t28 -89.5t47.5 -71.5t67.5 -48q37 -16 75 -19v-9zM391 638q84 -1 147 -28.5
t105 -72.5t62.5 -104t20.5 -123q0 -73 -27 -130t-70 -97.5t-97.5 -63t-108.5 -26.5v9q13 2 32.5 7.5t34.5 13.5q56 30 92 95.5t36 180.5q0 53 -9 102t-28 89.5t-47.5 71.5t-67.5 48q-37 16 -75 19v9z" />
    <glyph glyph-name="P" unicode="P" horiz-adv-x="561" 
d="M541 461q0 -34 -17 -66.5t-49.5 -58t-80.5 -42t-109 -19.5v9q11 1 24 3.5t22 5.5q57 17 83.5 54.5t26.5 111.5q0 60 -26 98.5t-88 56.5q-9 3 -19.5 4.5t-22.5 3.5v8q4 0 12.5 -0.5t18 -1t19 -1.5t16.5 -2q105 -14 147.5 -56.5t42.5 -107.5zM227 124q0 -32 6 -52.5t19 -34
t34 -20t50 -9.5v-8h-296v8q25 3 42.5 9.5t27.5 20t14.5 34t4.5 52.5v382q0 31 -4.5 52t-14.5 34.5t-27.5 20t-42.5 9.5v8h187v-506z" />
    <glyph glyph-name="Q" unicode="Q" horiz-adv-x="773" 
d="M1174 -186q-9 -11 -27.5 -24.5t-43 -24.5t-53.5 -18.5t-60 -7.5q-35 0 -67.5 3.5t-65.5 11.5t-68.5 19.5t-76.5 28.5q-90 36 -178.5 77.5t-175.5 69.5v4q12 2 31 4t40 4t41.5 3.5t35.5 1.5q17 0 31 -2t21 -4q25 -6 49.5 -14.5t51.5 -19.5t58 -23.5t69 -27.5
q27 -11 65 -23.5t78.5 -23.5t79 -18.5t67.5 -7.5q36 0 59.5 6.5t35.5 11.5zM380 -8q-84 1 -147 28.5t-105 72.5t-62.5 103.5t-20.5 123.5q0 73 27 130t70 97.5t97.5 63.5t108.5 26v-9q-13 -2 -32.5 -7.5t-34.5 -13.5q-56 -30 -92 -95.5t-36 -180.5q0 -53 9 -102t28 -89.5
t47.5 -71.5t67.5 -48q37 -16 75 -19v-9zM391 638q84 -1 147 -28.5t105 -72.5t62.5 -104t20.5 -123q0 -73 -27 -130t-70 -97.5t-97.5 -63t-108.5 -26.5v9q13 2 32.5 7.5t34.5 13.5q56 30 92 95.5t36 180.5q0 53 -9 102t-28 89.5t-47.5 71.5t-67.5 48q-37 16 -75 19v9z" />
    <glyph glyph-name="R" unicode="R" horiz-adv-x="699" 
d="M444 106q-31 40 -64.5 87.5t-64.5 104.5v5q11 1 19 2t19 4q28 8 45.5 22.5t27 34.5t12.5 44.5t3 53.5q0 75 -42 112.5t-114 45.5v8q4 0 14.5 -0.5t23 -1.5t24.5 -2.5t19 -2.5q88 -13 131 -54.5t43 -104.5q0 -62 -36.5 -99t-91.5 -53v-1q44 -77 101 -142.5t106 -114.5
q20 -20 51 -32.5t54 -15.5v-8q-19 -2 -49.5 -3t-67.5 -1q-29 0 -52.5 10t-43 26t-36 36t-31.5 40zM227 124q0 -32 6 -52.5t19 -34t34 -20t50 -9.5v-8h-296v8q25 3 42.5 9.5t27.5 20t14.5 34t4.5 52.5v382q0 31 -4.5 52t-14.5 34.5t-27.5 20t-42.5 9.5v8h187v-506z" />
    <glyph glyph-name="S" unicode="S" horiz-adv-x="490" 
d="M415 466q-8 31 -19 59t-27.5 49.5t-39 36t-52.5 18.5v9q14 0 33 -2t38.5 -5.5t37.5 -8t30 -8.5l8 -148h-9zM458 170q0 -50 -20.5 -83t-52 -53t-68.5 -29.5t-69 -11.5v9q27 1 50.5 9.5t41 24t27.5 39t10 56.5q0 24 -9.5 43.5t-27.5 37t-44.5 33.5t-59.5 34
q-31 16 -62.5 34.5t-57 41.5t-41.5 52t-16 66t14.5 66t38.5 50t55 33t64 15v-9q-91 -8 -91 -104q0 -27 10.5 -47.5t30.5 -37.5t48 -33t63 -35q33 -18 63.5 -36.5t53 -41.5t36 -52.5t13.5 -70.5zM205 -8q-48 4 -89 13.5t-61 18.5l-11 185h9q7 -39 23 -75t36.5 -64.5
t44.5 -46.5t48 -22v-9z" />
    <glyph glyph-name="T" unicode="T" horiz-adv-x="650" 
d="M228 622q-43 -1 -84 -22q-35 -18 -61 -59.5t-40 -95.5h-9l11 185h183v-8zM422 630h183l11 -185h-9q-14 54 -40 95.5t-61 59.5q-41 21 -84 22v8zM374 124q0 -32 4.5 -52.5t14.5 -34t27 -20t43 -9.5v-8h-276v8q25 3 42.5 9.5t27.5 20t14.5 34t4.5 52.5v506h98v-506z" />
    <glyph glyph-name="U" unicode="U" horiz-adv-x="718" 
d="M713 630v-8q-29 -2 -52.5 -11t-40.5 -29q-9 -10 -15.5 -30.5t-11 -44t-7 -45.5t-2.5 -35h-12q0 13 -2.5 34.5t-7.5 44.5t-11.5 43t-15.5 30q-17 21 -45.5 31t-56.5 12v8h280zM107 506q0 31 -4.5 52t-14.5 34.5t-27.5 20t-42.5 9.5v8h276v-8q-26 -3 -43 -9.5t-27 -20
t-14.5 -34.5t-4.5 -52v-291q0 -61 15.5 -101t59.5 -67q20 -13 52.5 -21.5t67.5 -13.5q5 -1 10.5 -1.5t10.5 -0.5q5 -1 9 -1v-7q-6 -3 -28.5 -6.5t-42.5 -3.5q-50 0 -91 8t-70 25q-51 30 -71 84t-20 119v278z" />
    <glyph glyph-name="V" unicode="V" horiz-adv-x="653" 
d="M374 115l-49 -122h-8l-200 508q-13 31 -26 53t-28 36.5t-32.5 22t-38.5 9.5v8h297v-8q-41 -2 -60 -15t-19 -42q0 -16 6.5 -35t16.5 -44zM678 630v-8q-32 -6 -58 -18t-48 -33t-40.5 -52t-36.5 -75l-8 4q3 8 6 23t6 31.5t5 32t2 26.5q0 17 -6.5 28t-17.5 18t-25 10.5
t-29 4.5v8h250z" />
    <glyph glyph-name="W" unicode="W" horiz-adv-x="965" 
d="M342 115l-49 -122h-8l-170 508q-11 32 -22.5 54t-25 36.5t-30 21.5t-37.5 9v8h279v-8q-33 -2 -50 -15t-17 -42q0 -11 4 -28t12 -42zM682 115l-49 -122h-8l-170 508q-11 32 -22.5 54t-25 36.5t-30 21.5t-37.5 9v8h279v-8q-33 -2 -50 -15t-17 -42q0 -11 4 -28t12 -42z
M985 630v-8q-32 -6 -58 -18t-48 -33t-40.5 -52t-36.5 -75l-8 4q3 8 6 23t6 31.5t5 32t2 26.5q0 17 -6.5 28t-17.5 18t-25 10.5t-29 4.5v8h250z" />
    <glyph glyph-name="X" unicode="X" horiz-adv-x="685" 
d="M167 513q-27 42 -63 72.5t-90 36.5v8h338v-8q-50 -5 -69.5 -18.5t-19.5 -33.5q0 -18 7 -34t15 -30l253 -390q26 -42 57 -71t82 -37v-8h-325v8q50 4 72 18t22 34q0 17 -7 30t-20 33zM8 0v8q32 5 60.5 20t54.5 37t50 48t47 53l8 -6q-5 -9 -12.5 -20.5t-14.5 -24
t-11.5 -24.5t-4.5 -22q0 -29 21.5 -44t49.5 -17v-8h-248zM674 630v-8q-29 -5 -57.5 -18.5t-42.5 -22.5q-12 -7 -28.5 -22.5t-32.5 -33.5t-30 -34.5t-20 -25.5l-8 6q4 6 11.5 17t14 24t11.5 25.5t5 22.5q0 29 -19 43t-52 19v8h248z" />
    <glyph glyph-name="Y" unicode="Y" horiz-adv-x="594" 
d="M614 622q-53 -7 -103.5 -45t-92.5 -104l-7 6q14 20 23.5 45.5t9.5 38.5q0 36 -20.5 46.5t-55.5 12.5v8h246v-8zM243 295l-143 245q-23 38 -52 57.5t-66 24.5v8h299v-8q-39 -2 -59 -16.5t-20 -31.5q0 -12 7.5 -28t22.5 -42l109 -191v-189q0 -32 4.5 -52.5t14.5 -34t27 -20
t43 -9.5v-8h-276v8q25 3 42.5 9.5t27.5 20t14.5 34t4.5 52.5v171z" />
    <glyph glyph-name="Z" unicode="Z" horiz-adv-x="577" 
d="M333 623q-121 -8 -189.5 -55.5t-95.5 -144.5h-9q7 64 11.5 115t8.5 92h274v-7zM128 0h-115l419 630h116zM245 0v8q63 4 111.5 16t85 35t62.5 59t45 87h8q-5 -32 -9 -57.5t-7.5 -49.5t-6.5 -47.5t-7 -50.5h-282z" />
    <glyph glyph-name="a" unicode="a" horiz-adv-x="418" 
d="M128 393q7 6 19 12t26 11t28 8.5t25 3.5q54 0 83 -27t29 -87v-229q0 -26 9.5 -36.5t30.5 -10.5q8 0 17.5 2.5t16.5 6.5v-7q-8 -16 -29 -32t-56 -16q-36 0 -55.5 22.5t-19.5 61.5v236q0 38 -29.5 58t-94.5 20v3zM185 39q13 0 27.5 4t19.5 7v-4q-9 -20 -36 -37t-62 -17
q-50 0 -75.5 28.5t-25.5 66.5t13.5 59t19.5 23q7 3 24.5 9t39.5 13.5t46.5 15.5t45.5 14v-8q-24 -9 -49.5 -21t-39.5 -29q-8 -11 -12 -25.5t-4 -29.5q0 -32 16.5 -50.5t51.5 -18.5zM55 323q0 19 13.5 32.5t32.5 13.5t32.5 -13.5t13.5 -32.5q0 -20 -13.5 -33.5t-32.5 -13.5
t-32.5 13.5t-13.5 33.5z" />
    <glyph glyph-name="b" unicode="b" horiz-adv-x="527" 
d="M267 1q33 2 59 18t43.5 43.5t26.5 64.5t9 81q0 78 -40 124.5t-122 46.5q-15 0 -35 -4.5t-37 -12.5v2q15 13 33.5 25t39 20.5t40.5 13.5t38 5q82 0 126.5 -50.5t44.5 -145.5q0 -47 -16.5 -89.5t-46.5 -75t-71.5 -52.5t-91.5 -22v8zM39 631q-13 11 -26 17v6l140 50l2 -1
q-1 -31 -2 -70.5t-1 -69.5v-446q0 -20 5.5 -42.5t16.5 -37.5q23 -31 63 -37v-8q-38 4 -76 17t-65 26h-1l-36 -29l-7 3q4 9 6.5 23.5t4 31.5t2.5 35.5t1 33.5v441q0 26 -9.5 38t-17.5 19z" />
    <glyph glyph-name="c" unicode="c" horiz-adv-x="410" 
d="M264 419q-26 -3 -52 -17t-47 -37.5t-34.5 -56t-13.5 -73.5q0 -48 12 -81t31.5 -53.5t45 -29.5t52.5 -9q44 0 79.5 16.5t52.5 40.5l5 -4q-8 -20 -21.5 -42t-35 -40t-52 -29.5t-70.5 -11.5q-44 0 -78.5 15.5t-58 43t-35.5 64.5t-12 80q0 52 22 94t56 72t75 46.5t79 19.5v-8
zM286 371q0 20 14 34t34 14t34 -14t14 -34t-14 -34t-34 -14t-34 14t-14 34z" />
    <glyph glyph-name="d" unicode="d" horiz-adv-x="523" 
d="M341 77q-7 -14 -19 -29t-29.5 -27.5t-39.5 -20.5t-48 -8q-41 0 -73 16.5t-54 44t-34 63.5t-12 76q0 37 12 71.5t33.5 63.5t50 51t61.5 34v-8q-13 -11 -26 -26.5t-23 -37t-16.5 -49t-6.5 -62.5q0 -41 11 -72.5t30 -52.5t44.5 -31.5t54.5 -10.5t50.5 6t33.5 13v-4zM444 89
q0 -33 8 -42.5t23 -13.5q11 -3 20.5 -4.5t18.5 -3.5v-7l-153 -26l-3 1v273q0 12 -1 27t-4.5 30t-10 29.5t-17.5 26.5q-18 19 -40 28t-55 9v7q27 6 52 6q23 0 44.5 -4t33.5 -9v158q0 26 -9.5 38t-17.5 19q-13 11 -26 17v6l138 50l2 -1q-1 -31 -2 -70.5t-1 -69.5v-474z" />
    <glyph glyph-name="e" unicode="e" horiz-adv-x="422" 
d="M205 418q-42 -8 -66 -55.5t-24 -114.5q0 -38 10 -72.5t29 -60.5t47 -41t65 -15q56 0 89 20t50 44l5 -4q-6 -17 -20.5 -38.5t-37 -41.5t-53.5 -33.5t-71 -13.5q-47 0 -83.5 17t-62 46.5t-39 68t-13.5 82.5q0 46 15 84.5t40 67.5t56.5 46.5t63.5 21.5v-8zM152 276v7l153 12
q-2 24 -6 45.5t-12 39t-21 28t-31 12.5v8q34 -1 63 -14t50 -34t33 -48t12 -56h-241z" />
    <glyph glyph-name="f" unicode="f" horiz-adv-x="303" 
d="M311 684q19 0 32.5 -13.5t13.5 -32.5q0 -20 -13.5 -33.5t-32.5 -13.5t-32.5 13.5t-13.5 33.5q0 19 13.5 32.5t32.5 13.5zM248 0h-227v8q21 3 34 8t19.5 15.5t9 27t2.5 41.5v280h-59v8l59 37v89q0 44 15.5 78t41.5 58t60 37.5t72 16.5v-6q-31 -5 -51 -20.5t-31.5 -38
t-16 -48.5t-4.5 -52v-121h117l-10 -38h-107v-280q0 -50 18 -70t58 -22v-8z" />
    <glyph glyph-name="g" unicode="g" horiz-adv-x="473" 
d="M337 -177q9 5 19.5 14t19.5 21t15 26t6 29q0 12 -3 22.5t-11 18.5t-23.5 12.5t-40.5 4.5q-11 0 -37.5 -1.5t-57 -3t-59 -2.5t-42.5 -1t-30 4t-29.5 13t-22 24t-8.5 37q0 6 2.5 15.5t9.5 19.5q11 17 29 35t35 30l4 -3q-9 -11 -13 -22.5t-4 -21.5q0 -23 16.5 -29.5
t35.5 -6.5q10 0 28 1t41 2.5t48 2.5t48 1q68 0 101 -23.5t33 -83.5q0 -27 -13.5 -50.5t-31.5 -42t-36.5 -31t-28.5 -17.5v6zM309 273q0 66 -24 101.5t-61 46.5v7q28 -2 58 -11.5t54 -27.5t39.5 -43.5t15.5 -58.5q0 -35 -13.5 -62t-34.5 -45.5t-48 -29.5t-54 -13v7
q38 14 52.5 47.5t15.5 81.5zM39 276q0 35 13.5 62t34.5 46t48 30t54 13v-7q-38 -14 -52.5 -48t-15.5 -82q0 -66 24 -101t61 -46v-7q-29 1 -58.5 11t-53.5 27.5t-39.5 43t-15.5 58.5zM307 -197q-8 -5 -23.5 -12.5t-37 -15t-47.5 -12.5t-55 -5q-66 0 -102.5 24t-36.5 62
q0 18 13 36t30.5 32.5t35.5 24.5t28 12l3 -5q-14 -6 -27 -24.5t-13 -47.5q0 -20 4.5 -36.5t15.5 -28.5t30.5 -18.5t49.5 -6.5q36 0 73.5 8t58.5 19v-6zM375 395l105 33l-10 -66l-95 25v8z" />
    <glyph glyph-name="h" unicode="h" horiz-adv-x="528" 
d="M362 283q0 41 -17.5 65t-64.5 24q-22 0 -43 -4.5t-39 -11.5v2q25 29 63 49.5t73 20.5q60 0 87 -35t27 -92v-201q0 -25 2.5 -41.5t9 -27t19.5 -15.5t34 -8v-8h-217v8q20 3 32.5 8.5t20 16t10.5 27t3 40.5v183zM168 100q0 -24 3 -40.5t10.5 -27t20 -16t32.5 -8.5v-8h-217v8
q21 3 34 8t19.5 15.5t9 27t2.5 41.5v474q0 26 -9.5 38t-17.5 19q-13 11 -26 17v6l140 50l2 -1q-1 -31 -2 -70.5t-1 -69.5v-463z" />
    <glyph glyph-name="i" unicode="i" horiz-adv-x="256" 
d="M84 293q0 26 -9.5 39.5t-17.5 20.5q-6 5 -14.5 10.5t-15.5 8.5v6l144 51l2 -1q-1 -31 -2 -70.5t-1 -69.5v-188q0 -49 14.5 -68t54.5 -24v-8h-220v8q21 3 34 8t19.5 15.5t9 27t2.5 41.5v193zM71 587q0 22 16 38.5t38 16.5q23 0 38.5 -16.5t15.5 -38.5t-15.5 -38t-38.5 -16
q-22 0 -38 16t-16 38z" />
    <glyph glyph-name="j" unicode="j" horiz-adv-x="221" 
d="M56 587q0 22 16 38.5t38 16.5q23 0 38.5 -16.5t15.5 -38.5t-15.5 -38t-38.5 -16q-22 0 -38 16t-16 38zM69 293q0 26 -9.5 39.5t-17.5 20.5q-6 5 -14.5 10.5t-15.5 8.5v6l144 51l2 -1q-1 -31 -2 -70.5t-1 -69.5v-216q0 -57 -6.5 -96.5t-20.5 -68t-35.5 -49t-50.5 -38.5
q-18 -11 -39.5 -22.5t-41.5 -19.5l-2 7q11 6 23.5 14.5t20.5 16.5q22 22 34.5 44.5t19.5 49.5t9 61t3 80v242z" />
    <glyph glyph-name="k" unicode="k" horiz-adv-x="493" 
d="M256 283q7 -13 20.5 -33.5t30 -43.5t34.5 -47t35 -45.5t31 -38t23 -24.5q26 -23 49 -32.5t36 -11.5v-7q-16 -2 -44.5 -2.5t-54.5 -0.5q-33 0 -48.5 9.5t-33.5 28.5q-17 18 -37 43t-38.5 51.5t-35 51t-26.5 42.5zM490 410q-22 -4 -48.5 -12t-51.5 -21q-29 -15 -56 -35.5
t-48 -40.5l-6 6q14 17 21 30.5t7 28.5t-11.5 27.5t-37.5 16.5v8h231v-8zM82 574q0 26 -9.5 38t-17.5 19q-13 11 -26 17v6l140 50l2 -1q-1 -31 -2 -70.5t-1 -69.5v-463q0 -24 3 -40.5t10.5 -27t20 -16t32.5 -8.5v-8h-217v8q21 3 34 8t19.5 15.5t9 27t2.5 41.5v474z" />
    <glyph glyph-name="l" unicode="l" horiz-adv-x="251" 
d="M82 574q0 26 -9.5 38t-17.5 19q-13 11 -26 17v6l140 50l2 -1q-1 -31 -2 -70.5t-1 -69.5v-463q0 -24 3 -40.5t10.5 -27t20 -16t32.5 -8.5v-8h-217v8q21 3 34 8t19.5 15.5t9 27t2.5 41.5v474z" />
    <glyph glyph-name="m" unicode="m" horiz-adv-x="790" 
d="M170 100q0 -24 3 -40.5t10.5 -27t20 -16t32.5 -8.5v-8h-217v8q21 3 34 8t19.5 15.5t9 27t2.5 41.5v198q0 26 -9.5 38t-17.5 19q-13 11 -26 17v6l137 51l2 -1v-328zM440 100q0 -25 2 -41.5t8.5 -27t19 -15.5t33.5 -8v-8h-215v8q20 3 32.5 8.5t20 16t10.5 27t3 40.5v185
q0 41 -15 64t-62 23q-22 0 -40.5 -4.5t-36.5 -11.5v2q25 29 63 49.5t73 20.5q60 0 82 -34t22 -91v-203zM624 285q0 41 -15 64t-62 23q-22 0 -40.5 -4.5t-36.5 -11.5v2q25 29 63 49.5t73 20.5q60 0 82 -34t22 -91v-203q0 -25 2.5 -41.5t9 -27t19.5 -15.5t34 -8v-8h-217v8
q20 3 32.5 8.5t20 16t10.5 27t3 40.5v185z" />
    <glyph glyph-name="n" unicode="n" horiz-adv-x="530" 
d="M364 285q0 41 -17.5 64t-64.5 23q-22 0 -43 -4.5t-39 -11.5v2q25 29 63 49.5t73 20.5q60 0 87 -34t27 -91v-203q0 -25 2.5 -41.5t9 -27t19.5 -15.5t34 -8v-8h-217v8q20 3 32.5 8.5t20 16t10.5 27t3 40.5v185zM170 100q0 -24 3 -40.5t10.5 -27t20 -16t32.5 -8.5v-8h-217v8
q21 3 34 8t19.5 15.5t9 27t2.5 41.5v198q0 26 -9.5 38t-17.5 19q-13 11 -26 17v6l137 51l2 -1v-328z" />
    <glyph glyph-name="o" unicode="o" horiz-adv-x="500" 
d="M119 210q0 -78 20.5 -126t60.5 -69q11 -6 22 -10t22 -5v-8q-44 1 -84 16t-70 42.5t-47.5 67.5t-17.5 90q0 51 19 90t48 66.5t63.5 43.5t65.5 19v-8q-19 -2 -35.5 -14t-29.5 -30q-17 -24 -27 -66.5t-10 -98.5zM381 210q0 155 -81 198q-11 6 -22 8.5t-22 3.5v8
q44 -1 84 -16t70 -43t47.5 -68t17.5 -90q0 -51 -18.5 -89.5t-47.5 -65.5t-63.5 -43t-66.5 -20v8q16 2 34 15t31 32q17 24 27 65t10 97z" />
    <glyph glyph-name="p" unicode="p" horiz-adv-x="535" 
d="M335 16q17 11 31 31t24.5 45.5t16.5 55t6 59.5q0 35 -9 65.5t-27 53.5t-46 36.5t-65 13.5q-21 0 -42.5 -4t-38.5 -13v2q11 14 28 26.5t37 21.5t40 14t37 5q51 0 84.5 -17t53.5 -44.5t28 -61.5t8 -68q0 -88 -44.5 -143t-121.5 -86v8zM295 -3q-18 -5 -52 -5q-14 0 -38 4
t-39 10v-140q0 -49 16.5 -68t56.5 -24v-8h-224v8q21 3 34 8t19.5 15.5t9 27t2.5 41.5v432q0 26 -9.5 38t-17.5 19q-13 11 -26 17v6l137 51l2 -1v-278q0 -32 6 -63t29 -53q19 -18 45 -23t49 -6v-8z" />
    <glyph glyph-name="q" unicode="q" horiz-adv-x="525" 
d="M350 61q-6 -9 -18 -21t-29 -22.5t-39.5 -18t-49.5 -7.5q-41 0 -74.5 15t-57.5 42t-37 64.5t-13 83.5q0 48 18.5 88.5t50 71t71.5 49t84 22.5v-8q-27 -3 -52 -16.5t-44 -37t-30 -58t-11 -79.5q0 -87 37.5 -134t107.5 -47q28 0 51.5 5t34.5 12v-4zM455 -134
q0 -25 2.5 -41.5t9 -27t19.5 -15.5t34 -8v-8h-224v8q40 5 56.5 24t16.5 68v428q0 48 -19.5 83t-64.5 43v8q19 -2 37 -7.5t33.5 -13t27 -15t18.5 -12.5h2l46 41l6 -1v-554z" />
    <glyph glyph-name="r" unicode="r" horiz-adv-x="364" 
d="M301 310q-20 0 -33.5 12.5t-13.5 32.5q0 10 3 19.5t7 13.5q-2 2 -8 2q-12 0 -29 -10t-31 -37v4q5 16 14.5 30.5t21.5 25.5t26.5 18t29.5 7q34 0 49.5 -17t15.5 -46q0 -27 -15 -41t-37 -14zM170 100q0 -26 4.5 -43t14 -27t24 -15t33.5 -7v-8h-227v8q21 3 34 8t19.5 15.5
t9 27t2.5 41.5v198q0 26 -9.5 38t-17.5 19q-13 11 -26 17v6l137 51l2 -1v-328z" />
    <glyph glyph-name="s" unicode="s" horiz-adv-x="356" 
d="M156 419q-14 -2 -30 -19.5t-16 -44.5q0 -21 7.5 -35t20.5 -24.5t31.5 -19.5t40.5 -20q24 -12 46 -24t38.5 -27t26.5 -34t10 -44q0 -34 -12.5 -59t-33 -41.5t-46.5 -25t-53 -9.5v6q32 4 54 24.5t22 59.5q0 20 -8.5 34t-23.5 24.5t-35 20t-42 20.5q-19 9 -39 20t-36 25.5
t-26 34t-10 46.5q0 49 31.5 81t82.5 38v-7zM193 428q34 0 65.5 -7t43.5 -14l6 -108h-7q-8 24 -19 45t-25 37t-30.5 26.5t-33.5 13.5v7zM148 -8q-12 0 -28 2.5t-31.5 5.5t-29 7t-21.5 8l-8 127h7q6 -23 16.5 -46t24.5 -43t32 -34.5t38 -20.5v-6z" />
    <glyph glyph-name="t" unicode="t" horiz-adv-x="305" 
d="M167 -8q-57 0 -78 27.5t-21 78.5v282h-55v10l132 135l9 -3v-104h143l-11 -38h-132v-250q0 -39 16 -62t61 -23q23 0 43 3t31 6v-4q-6 -9 -19.5 -19t-31.5 -19t-40.5 -14.5t-46.5 -5.5z" />
    <glyph glyph-name="u" unicode="u" horiz-adv-x="504" 
d="M69 310q0 25 -1.5 41.5t-8 26.5t-19.5 15t-36 8v8l149 15l2 -1v-272q0 -56 17.5 -78.5t65.5 -22.5q26 0 43 5t34 16v-4q-20 -31 -52 -52t-77 -21q-64 0 -90.5 35t-26.5 95v186zM427 91q0 -33 8 -42.5t23 -13.5q11 -3 20.5 -4.5t18.5 -3.5v-7l-153 -26l-3 1v315
q0 25 -2.5 41.5t-10 26.5t-22 15t-37.5 8v8l156 15l2 -1v-332z" />
    <glyph glyph-name="v" unicode="v" horiz-adv-x="413" 
d="M443 417v-8q-40 -2 -72 -37t-54 -83l-8 3q1 3 3.5 9.5t5 15.5t4.5 18.5t2 17.5q0 32 -15.5 42.5t-47.5 13.5v8h182zM196 417v-8q-52 -6 -52 -39q0 -11 5 -26.5t10 -26.5l90 -215l-38 -106h-6l-142 335q-9 20 -16.5 34t-16.5 23t-21 14t-29 7v8h216z" />
    <glyph glyph-name="w" unicode="w" horiz-adv-x="633" 
d="M196 418v-8q-50 -6 -50 -41q0 -11 4 -26t9 -26l80 -215l-38 -106h-6l-132 335q-17 40 -33 57t-50 22v8h216zM663 418v-8q-20 -3 -38.5 -14t-35 -27.5t-30 -37t-22.5 -42.5l-8 3q1 3 3.5 10t5 16.5t4.5 20.5t2 21q0 44 -63 50v8h182zM436 418v-8q-50 -6 -50 -41
q0 -11 4 -26t9 -26l80 -215l-38 -106h-6l-133 337q-8 19 -13.5 33t-13 23t-18 14t-27.5 7v8h206z" />
    <glyph glyph-name="x" unicode="x" horiz-adv-x="451" 
d="M455 418v-8q-44 -8 -79 -37t-73 -83l-6 5q12 17 20 37.5t8 35.5q0 23 -14.5 31t-39.5 11v8h184zM368 80q21 -30 44 -49.5t51 -22.5v-8h-225v8q26 2 35.5 10t9.5 21q0 11 -7 24.5t-20 31.5l-176 250q-21 30 -39.5 45.5t-52.5 19.5v8h228v-8q-47 -4 -47 -31q0 -11 10 -28
t18 -28zM-12 0v8q49 11 87.5 41.5t76.5 83.5l5 -7q-8 -14 -16 -34.5t-8 -37.5q0 -23 17 -33t39 -13v-8h-201z" />
    <glyph glyph-name="y" unicode="y" horiz-adv-x="420" 
d="M164 -150q-17 -46 -44.5 -68.5t-58.5 -22.5q-19 0 -36 13t-17 37q0 26 15.5 38t31.5 12q30 0 41 -16.5t16 -35.5q5 3 12 8.5t13.5 12.5t11.5 13.5t8 11.5zM450 418v-8q-44 -6 -77 -39t-56 -86l-8 3l3.5 10.5t5 17.5t4.5 21t2 19q0 26 -16.5 38.5t-48.5 15.5v8h191z
M198 418v-8q-52 -6 -52 -39q0 -11 5 -27t10 -27l86 -215l-38 -106h-6l-140 335q-8 19 -15.5 33t-17 23.5t-21.5 15t-29 7.5v8h218z" />
    <glyph glyph-name="z" unicode="z" horiz-adv-x="418" 
d="M44 418h164v-8q-33 -4 -58 -12.5t-45 -23.5t-35.5 -38.5t-27.5 -57.5h-8zM110 0h-98l287 418h99zM205 0v8q32 2 61.5 13.5t54 31t43 46.5t28.5 61h8q-4 -24 -7.5 -52l-6.5 -52l-7 -56h-174z" />
    <glyph glyph-name="quoteleft" unicode="&#x2018;" horiz-adv-x="188" 
d="M165 483q0 -26 -19 -40.5t-39 -14.5q-67 0 -67 80q0 20 10 40.5t27 38t39.5 31t48.5 20.5l3 -7q-16 -7 -32 -16t-28.5 -22t-19.5 -30t-5 -39q6 4 14.5 6.5t20.5 2.5q17 0 32 -13.5t15 -36.5z" />
    <glyph glyph-name="quoteright" unicode="&#x2019;" horiz-adv-x="188" 
d="M23 583q0 26 19 40.5t39 14.5q67 0 67 -80q0 -20 -10 -40.5t-27 -38t-39.5 -31t-48.5 -20.5l-3 7q16 7 32 16t28.5 22t19.5 29.5t5 39.5q-6 -4 -14.5 -6.5t-20.5 -2.5q-17 0 -32 13.5t-15 36.5z" />
    <glyph glyph-name="quotedblleft" unicode="&#x201c;" horiz-adv-x="338" 
d="M315 483q0 -26 -19 -40.5t-39 -14.5q-67 0 -67 80q0 20 10 40.5t27 38t39.5 31t48.5 20.5l3 -7q-16 -7 -32 -16t-28.5 -22t-19.5 -30t-5 -39q6 4 14.5 6.5t20.5 2.5q17 0 32 -13.5t15 -36.5zM165 483q0 -26 -19 -40.5t-39 -14.5q-67 0 -67 80q0 20 10 40.5t27 38t39.5 31
t48.5 20.5l3 -7q-16 -7 -32 -16t-28.5 -22t-19.5 -30t-5 -39q6 4 14.5 6.5t20.5 2.5q17 0 32 -13.5t15 -36.5z" />
    <glyph glyph-name="quotedblright" unicode="&#x201d;" horiz-adv-x="338" 
d="M23 583q0 26 19 40.5t39 14.5q67 0 67 -80q0 -20 -10 -40.5t-27 -38t-39.5 -31t-48.5 -20.5l-3 7q16 7 32 16t28.5 22t19.5 29.5t5 39.5q-6 -4 -14.5 -6.5t-20.5 -2.5q-17 0 -32 13.5t-15 36.5zM173 583q0 26 19 40.5t39 14.5q67 0 67 -80q0 -20 -10 -40.5t-27 -38
t-39.5 -31t-48.5 -20.5l-3 7q16 7 32 16t28.5 22t19.5 29.5t5 39.5q-6 -4 -14.5 -6.5t-20.5 -2.5q-17 0 -32 13.5t-15 36.5z" />
    </font>
</defs>
</svg>
